В Компании Макса Линдера скачать торрент

      Комментарии к записи В Компании Макса Линдера скачать торрент отключены

Уважаемый гость, на данной странице Вам доступен материал по теме: В Компании Макса Линдера скачать торрент. Скачивание возможно на компьютер и телефон через торрент, а также сервер загрузок по ссылке ниже. Рекомендуем также другие статьи из категории «Торренты».

В Компании Макса Линдера скачать торрент.rar
Закачек 3850
Средняя скорость 3957 Kb/s
Скачать


В компании Макса Линдера

Перевод: Профессиональный (одноголосый), cубтитры : есть (англ., русск.)

Год выпуска: 1963

Сегодня всем известно имя Макса Линдера. Но если мы перенесемся на 50 лет назад, то увидим, что этого имени не знал практически никто, кроме самых завзятых киноведов и киноманов. Мод Линдер, дочь Макса Линдера, потерявшая обоих родителей в полугодовалом возрасте, в 1963 году выпустила этот фильм, который оставлен из трех фильмов Макса Линдера: «Будьте моей женой», «Семь лет несчастий» и «L’etroit mousquetaire» (я умышленно не перевел третье название, ибо это не «Три мушкетера», а «почти мушкетер», Куцый мушкетер, Трохи мушкетера, как я называл его в прошлой раздаче, или «Треть мушкетера», как я назвал его тут). Первые два фильма составили сквозное повествование о том, как Макса сначала получил любой своей Мэри, а потом, несмотря на многочисленные препятствия и пережив множество приключений, женился на ней. Третий фильм представляет собой пародию на недавно (в то время) вышедший на экраны фильм «Три мушкетера» с Дугласом Фэрбенксом в роли Д’Артаньяна.

1994 kbps avg, 0.22 bit/pixel

Аудио#1: Русский 48 kHz, MPEG Layer 3, 2 ch,

Аудио#2: Музыка 48 kHz, MPEG Layer 3, 2 ch,

В этой раздаче представлено ДВА варианта картины:

— с английскими интертитрами (две звуковых дороги: русская, с начиткой титров с канала «Культура»; английская, без начитки титров.

— с русскими интертитрами (одна звуковая дорога: перевод короткого текста в начале с канала «Культура» и далее чистая музыка).

Параметры версии с русскими интертитрами:

Complete name : D:РаздачиEn.compagnie.de.Max.Linder.1963.rus.rus.intertitles.avi

Format/Info : Audio Video Interleave

File size : 1.31 GiB

Duration : 1h 27mn

Overall bit rate : 2 132 Kbps

Writing application : VirtualDubMod 1.5.10.2 (build 2540/release)

Writing library : VirtualDubMod build 2540/release

Format : MPEG-4 Visual

Format profile : Advanced Simple@L5

Format settings, BVOP : 2

Format settings, QPel : No

Format settings, GMC : No warppoints

Format settings, Matrix : Default (H.263)

Duration : 1h 27mn

Bit rate : 1 994 Kbps

Width : 720 pixels

Height : 528 pixels

Display aspect ratio : 4:3

Frame rate : 23.976 fps

Color space : YUV

Chroma subsampling : 4:2:0

Bit depth : 8 bits

Scan type : Progressive

Compression mode : Lossy

Stream size : 1.22 GiB (94%)

Writing library : XviD 1.1.2 (UTC 2006-11-01)

Format : MPEG Audio

Format version : Version 1

Format profile : Layer 3

Mode : Joint stereo

Mode extension : MS Stereo

Codec ID/Hint : MP3

Duration : 1h 27mn

Bit rate mode : Constant

Bit rate : 128 Kbps

Channel(s) : 2 channels

Sampling rate : 48.0 KHz

Compression mode : Lossy

Stream size : 80.5 MiB (6%)

Alignment : Aligned on interleaves

Interleave, duration : 42 ms (1.00 video frame)

Interleave, preload duration : 504 ms

Параметры версии с английскими интертитрами:

Complete name : D:РаздачиEn.compagnie.de.Max.Linder.1963.rus.eng.eng.intertitles.avi

Format/Info : Audio Video Interleave

File size : 1.39 GiB

Duration : 1h 27mn

Overall bit rate : 2 265 Kbps

Writing application : VirtualDubMod 1.5.10.2 (build 2540/release)

Writing library : VirtualDubMod build 2540/release

Format : MPEG-4 Visual

Format profile : Advanced Simple@L5

Format settings, BVOP : 2

Format settings, QPel : No

Format settings, GMC : No warppoints

Format settings, Matrix : Default (H.263)

Duration : 1h 27mn

Bit rate : 1 995 Kbps

Width : 720 pixels

Height : 528 pixels

Display aspect ratio : 4:3

Frame rate : 23.976 fps

Color space : YUV

Chroma subsampling : 4:2:0

Bit depth : 8 bits

Scan type : Progressive

Compression mode : Lossy

Stream size : 1.23 GiB (88%)

Writing library : XviD 1.1.2 (UTC 2006-11-01)

Format : MPEG Audio

Format version : Version 1

Format profile : Layer 3

Mode : Joint stereo

Mode extension : MS Stereo

Codec ID/Hint : MP3

Duration : 1h 27mn

Bit rate mode : Constant

Bit rate : 128 Kbps

Channel(s) : 2 channels

Sampling rate : 48.0 KHz

Compression mode : Lossy

Stream size : 80.5 MiB (6%)

Alignment : Aligned on interleaves

Interleave, duration : 42 ms (1.00 video frame)

Interleave, preload duration : 504 ms

Format : MPEG Audio

Format version : Version 1

Format profile : Layer 3

Mode : Joint stereo

Mode extension : MS Stereo

Codec ID/Hint : MP3

Duration : 1h 27mn

Bit rate mode : Constant

Bit rate : 128 Kbps

Channel(s) : 2 channels

Sampling rate : 48.0 KHz

Compression mode : Lossy

Stream size : 80.5 MiB (6%)

Alignment : Aligned on interleaves

Interleave, duration : 42 ms (1.00 video frame)


В компании Макса Линдера. На этом данная статья подошла к завершению. Следите за обновлениями на нашем сайте. Получить дополнительную информацию, а также задать свои вопросы можно в комментариях.


Статьи по теме