The Good Dinosaur torrent

      Комментарии к записи The Good Dinosaur torrent отключены

Уважаемый гость, на данной странице Вам доступен материал по теме: The Good Dinosaur torrent. Скачивание возможно на компьютер и телефон через торрент, а также сервер загрузок по ссылке ниже. Рекомендуем также другие статьи из категории «Торренты».

The Good Dinosaur torrent.rar
Закачек 1100
Средняя скорость 8578 Kb/s
Скачать


The Good Dinosaur torrent

Информация о фильме

Название: Хороший динозавр

Оригинальное название: The Good Dinosaur

Год выхода: 2015

Жанр: Мультфильм, полнометражный, фэнтези, комедия, приключения, семейный

Режиссер: Питер Сон

В ролях: Джеффри Райт, Фрэнсис МакДорманд, Малиа Нипай-Падилья, Райан Типл, Джек МакГроу, Маркус Скрибнер, Рэймонд Очоа, Джек Брайт, Питер Сон, Стив Зан, Мэнди Фройнд, Стивен Клэй Хантер, А.Дж. Бакли, Анна Пакуин, Сэм Эллиотт, Дэвид Боат, Кэрри Пафф, Кэлам Грант, Джон Ратценбергер

О фильме:

Представьте, что астероид, некогда навсегда изменивший жизнь на Земле, пролетел мимо нашей планеты и гигантские динозавры существуют по сей день — они далеко обогнали в развитии первобытных людей и создали собственную цивилизацию. Именно там возникла история невероятной дружбы юного бронтозавра Арло и маленького мальчика по имени Дружок. Этим на первый взгляд непохожим героям предстоит вместе совершить опасное путешествие в далекие и таинственные края, научиться бороться со своими страхами и понять, что они не так уж и отличаются друг от друга.

Страна: США

Студия: Walt Disney Pictures, Pixar Animation Studios

Продолжительность: 01:33:50

Перевод: Дублированный | Лицензия Blu-Ray EUR

Кодек: MPEG-4

Качество: BDRip 720p

Видео: 1280×536, 4624 Kbit/s, 23.976 fps

Звук:

Аудио #01: 48 kHz, AC3, 5.1, 640 Kbps | Дублированный, Лицензия Blu-Ray EUR |

Аудио #02: 48 kHz, DTS, 5.1, 1510 kbps | Оригинал |

Субтитры: Русские, английские

Релиз от: Автор релиза:

Unique ID : 200822705804730619349757393032128879277 (0x97150BD7D7418A4E92FBF2EBA599DAAD)

Complete name : F:VideoThe.Good.Dinosaur.2015.BDRip.720p.ExKinoRay.mkv

Format version : Version 4 / Version 2

File size : 4.43 GiB

Duration : 1h 33mn

Overall bit rate : 6 766 Kbps

Movie name : The.Good.Dinosaur.2015.BDRip.720p.ExKinoRay

Encoded date : UTC 2016-06-26 19:23:15

Writing application : mkvmerge v8.3.0 (‘Over the Horizon’) 64bit

Writing library : libebml v1.3.1 + libmatroska v1.4.2

Format/Info : Advanced Video Codec

Format profile : High@L4.1

Format settings, CABAC : Yes

Format settings, ReFrames : 12 frames

Codec ID : V_MPEG4/ISO/AVC

Duration : 1h 33mn

Bit rate : 4 624 Kbps

Width : 1 280 pixels

Height : 536 pixels

Display aspect ratio : 2.40:1

Frame rate mode : Constant

Frame rate : 23.976 (24000/1001) fps

Color space : YUV

Chroma subsampling : 4:2:0

Bit depth : 8 bits

Scan type : Progressive

Stream size : 3.02 GiB (68%)

Writing library : x264 core 142 r2431+42 c69a006 tMod [8-bit@all X86_64]

Encoding settings : cabac=1 / ref=12 / deblock=1:-1:-1 / analyse=0x3:0x133 / me=umh / subme=11 / psy=1 / fade_compensate=0.00 / psy_rd=0.40:0.00 / mixed_ref=1 / me_range=32 / chroma_me=1 / trellis=2 / 8x8dct=1 / cqm=0 / deadzone=21,11 / fast_pskip=0 / chroma_qp_offset=-2 / threads=12 / lookahead_threads=2 / sliced_threads=0 / nr=0 / decimate=0 / interlaced=0 / bluray_compat=0 / constrained_intra=0 / fgo=0 / bframes=8 / b_pyramid=2 / b_adapt=2 / b_bias=0 / direct=3 / weightb=1 / open_gop=0 / weightp=2 / keyint=240 / keyint_min=23 / scenecut=40 / intra_refresh=0 / rc_lookahead=60 / rc=crf / mbtree=0 / crf=16.3000 / qcomp=0.60 / qpmin=0:0:0 / qpmax=69:69:69 / qpstep=4 / vbv_maxrate=40000 / vbv_bufsize=30000 / crf_max=0.0 / nal_hrd=none / filler=0 / ip_ratio=1.40 / pb_ratio=1.30 / aq=1:0.60 / aq-sensitivity=10.00 / aq-factor=1.00:1.00:1.00 / aq2=0 / aq3=0

Format/Info : Audio Coding 3

Mode extension : CM (complete main)

Format settings, Endianness : Big

Codec ID : A_AC3

Duration : 1h 33mn

Bit rate mode : Constant

Bit rate : 640 Kbps

Channel(s) : 6 channels

Channel positions : Front: L C R, Side: L R, LFE

Sampling rate : 48.0 KHz

Frame rate : 31.250 fps (1536 spf)

Compression mode : Lossy

Stream size : 430 MiB (9%)

Title : DUB [Blu-ray EUR]

Format/Info : Digital Theater Systems

Format settings, Endianness : Big

Codec ID : A_DTS

Duration : 1h 33mn

Bit rate mode : Constant

Bit rate : 1 509 Kbps

Channel(s) : 6 channels

Channel positions : Front: L C R, Side: L R, LFE


Хороший динозавр. На этом данная статья подошла к завершению. Следите за обновлениями на нашем сайте. Получить дополнительную информацию, а также задать свои вопросы можно в комментариях.


Статьи по теме