Мультфильм Заколдованный Мальчик торрент

      Комментарии к записи Мультфильм Заколдованный Мальчик торрент отключены

Уважаемый гость, на данной странице Вам доступен материал по теме: Мультфильм Заколдованный Мальчик торрент. Скачивание возможно на компьютер и телефон через торрент, а также сервер загрузок по ссылке ниже. Рекомендуем также другие статьи из категории «Торренты».

Мультфильм Заколдованный Мальчик торрент.rar
Закачек 3475
Средняя скорость 1665 Kb/s
Скачать


Заколдованный мальчик

Год выхода: 1955

Страна: СССР

Оригинальное название:

Возраст: зрителям, достигшим 6 лет

Продолжительность: 45 мин.

Скачать мультфильм «Заколдованный мальчик» через торрент бесплатно

Чиполлино, Заколдованный мальчик (1955, 1961) DVDRip от New-Team .torrent [Информация о файле (нажмите для просмотра)]

Перевод: не требуется

Видео 1: 640×480 (4:3), 25 fps, XviD

1476 kbps avg, 0.192 bit/pixel

Видео 2: 640×480 (4:3), 25 fps, XviD

1357 kbps avg, 0.177 bit/pixel

Аудио: 48 kHz, MP3, 2 ch, 128.00 kbps

Видео: Идентификатор : 0 Формат : MPEG-4 Visual Профиль формата : Advanced Simple@L5 Параметр BVOP формата : 1 Параметр QPel формата : Нет Параметр GMC формата : Без точки перехода Параметр матрицы формата : Выборочная Идентификатор кодека : XVID Идентификатор кодека/Подсказка : XviD Продолжительность : 37 м. Битрейт : 1476 Кбит/сек Ширина : 640 пикселей Высота : 480 пикселей Соотношение сторон : 4:3 Частота кадров : 25,000 кадров/сек Цветовое пространство : YUV Субдискретизация насыщенности : 4:2:0 Битовая глубина : 8 бит Тип развёртки : Прогрессивная Метод сжатия : С потерями Бит/(Пиксели*Кадры) : 0.192 Размер потока : 398 Мбайт (91%) Библиотека кодирования : XviD 65

Аудио: Идентификатор : 1 Формат : MPEG Audio Версия формата : Version 1 Профиль формата : Layer 3 Идентификатор кодека : 55 Идентификатор кодека/Подсказка : MP3 Продолжительность : 37 м. Вид битрейта : Постоянный Битрейт : 128 Кбит/сек Каналы : 2 канала Частота : 48,0 КГц Метод сжатия : С потерями Размер потока : 34,5 Мбайт (8%) Выравнивание : Соединение по промежуткам Продолжительность промежутка : 40 мс. (1,00 видеокадр) Время предзагрузки промежутка : 504 мс. Библиотека кодирования : L3.99r Настройки программы : -m s -V 4 -q 2 -lowpass 17 -b 128

Видео: Идентификатор : 0 Формат : MPEG-4 Visual Профиль формата : Advanced Simple@L5 Параметр BVOP формата : 1 Параметр QPel формата : Нет Параметр GMC формата : Без точки перехода Параметр матрицы формата : Выборочная Идентификатор кодека : XVID Идентификатор кодека/Подсказка : XviD Продолжительность : 42 м. Битрейт : 1357 Кбит/сек Ширина : 640 пикселей Высота : 480 пикселей Соотношение сторон : 4:3 Частота кадров : 25,000 кадров/сек Цветовое пространство : YUV Субдискретизация насыщенности : 4:2:0 Битовая глубина : 8 бит Тип развёртки : Прогрессивная Метод сжатия : С потерями Бит/(Пиксели*Кадры) : 0.177 Размер потока : 416 Мбайт (91%) Библиотека кодирования : XviD 65

Аудио: Идентификатор : 1 Формат : MPEG Audio Версия формата : Version 1 Профиль формата : Layer 3 Идентификатор кодека : 55 Идентификатор кодека/Подсказка : MP3 Продолжительность : 42 м. Вид битрейта : Постоянный Битрейт : 128 Кбит/сек Каналы : 2 канала Частота : 48,0 КГц Метод сжатия : С потерями Размер потока : 39,2 Мбайт (9%) Выравнивание : Соединение по промежуткам Продолжительность промежутка : 40 мс. (1,00 видеокадр) Время предзагрузки промежутка : 504 мс. Библиотека кодирования : L3.99r Настройки программы : -m s -V 4 -q 2 -lowpass 17 -b 128


Скачать фильм Заколдованный мальчик (1955) через торрент. На этом данная статья подошла к завершению. Следите за обновлениями на нашем сайте. Получить дополнительную информацию, а также задать свои вопросы можно в комментариях.


Статьи по теме